Filmy, gry, aplikacje, muzyka i inne. Najlepsze torrenty w jednym miejscu.

Daredevil – Sezon 2 [720p.NF.WEBRip.x264.AC3] [Lektor PL]

Data dodania: Styczeń 9, 2018
Dodane przez: kakarotto5555

Kategoria: Filmy z Lektorem, Seriale Zagraniczne, Filmy HD/Blu-Ray, Filmy x264/h264

Ostatnia Aktualizacja: Styczeń 9, 2018

Komentarzy: 0

Ocen ten Torrent:

No votes yet.
Please wait...

Rozmiar: 18.64 GB

Seedów: 0

Leecherów: 0

Liczba pobrań: 40

Aktualizacja Trackerów: Live

Darmowe konta premium dla użytkowników kyodown.info - więcej info TUTAJ

INFO O TORRENCIE

produkcja: USA
gatunek: Akcja, Sci-Fi
reżyseria: Adam Kane, Phil Abraham, Steven S. DeKnight
scenariusz: Drew Goddard, Christos N. Gage, Marco Ramirez
zdjęcia: Matthew J. Lloyd
muzyka: John Paesano
czas trwania: ok. 48-60 min.

Serial opowiada historię Matta Murdocka, niewidomego prawnika, który dzięki wyczulonym pozostałym zmysłom i umiejętnościami walki wręcz, zwalcza przestępczość w Nowym Jorku jako zamaskowany superbohater Daredevil.

Charlie Cox – Matt Murdock / Daredevil
Vincent D’Onofrio – Wilson Fisk / Kingpin
Rosario Dawson – Claire Temple
Elden Henson – Franklin P. „Foggy” Nelson
Deborah Ann Woll – Karen Page
Jon Bernthal – Frank Castle / Punisher
Élodie Yung – Elektra Natchios
Stephen Rider – Blake Tower
Susan Varon – Josie

Format : Matroska
Format version : Version 4 / Version 2
File size : 1.50 GiB
Duration : 56mn 2s
Overall bit rate : 3 835 Kbps
Encoded date : UTC 2016-03-20 12:28:43

Video
ID : 1
Format : AVC
Format/INFO : Advanced Video Codec
Format profile : [email protected]
Format settings, CABAC : Yes
Format settings, ReFrames : 5 frames
Codec ID : V_MPEG4/ISO/AVC
Duration : 56mn 2s
Bit rate : 3 374 Kbps
Width : 1 280 pixels
Height : 720 pixels
Display aspect ratio : 16:9
Frame rate mode : Constant
Frame rate : 23.976 fps
Color space : YUV
Chroma subsampling : 4:2:0
Bit depth : 8 bits
Scan type : Progressive
Bits/(Pixel*Frame) : 0.153
Stream size : 1.32 GiB (88%)
Writing library : x264
Matrix coefficients : BT.709

Audio
ID : 2
Format : AC-3
Format/INFO : Audio Coding 3
Mode extension : CM (complete main)
Format settings, Endianness : Big
Codec ID : A_AC3
Duration : 56mn 2s
Bit rate mode : Constant
Bit rate : 384 Kbps
Channel(s) : 2 channels
Channel positions : Front: L R
Sampling rate : 48.0 KHz
Bit depth : 16 bits
Compression mode : Lossy
Stream size : 154 MiB (10%)
Language : Polish

SCREENY

TRAILER

LISTA PLIKÓW

Nazwa: Rozmiar:
Daredevil - Sezon 2 [720p.NF.WEBRip.x264.AC3] [Lektor PL]/Daredevil S02E01 - Bang [720p.NF.WEBRip.x264.AC3] [Lektor PL].mkv 1.51 GB
Daredevil - Sezon 2 [720p.NF.WEBRip.x264.AC3] [Lektor PL]/Daredevil S02E02 - Dogs to a Gunfight [720p.NF.WEBRip.x264.AC3] [Lektor PL].mkv 3.02 GB
Daredevil - Sezon 2 [720p.NF.WEBRip.x264.AC3] [Lektor PL]/Daredevil S02E03 - New York's Finest [720p.NF.WEBRip.x264.AC3] [Lektor PL].mkv 4.23 GB
Daredevil - Sezon 2 [720p.NF.WEBRip.x264.AC3] [Lektor PL]/Daredevil S02E04 - Penny and Dime [720p.NF.WEBRip.x264.AC3] [Lektor PL].mkv 5.62 GB
Daredevil - Sezon 2 [720p.NF.WEBRip.x264.AC3] [Lektor PL]/Daredevil S02E05 - Kinbaku [720p.NF.WEBRip.x264.AC3] [Lektor PL].mkv 7.07 GB
Daredevil - Sezon 2 [720p.NF.WEBRip.x264.AC3] [Lektor PL]/Daredevil S02E06 - Regrets Only [720p.NF.WEBRip.x264.AC3] [Lektor PL].mkv 8.6 GB
Daredevil - Sezon 2 [720p.NF.WEBRip.x264.AC3] [Lektor PL]/Daredevil S02E07 - Semper Fidelis [720p.NF.WEBRip.x264.AC3] [Lektor PL].mkv 10.11 GB
Daredevil - Sezon 2 [720p.NF.WEBRip.x264.AC3] [Lektor PL]/Daredevil S02E08 - Guilty as Sin [720p.NF.WEBRip.x264.AC3] [Lektor PL].mkv 11.42 GB
Daredevil - Sezon 2 [720p.NF.WEBRip.x264.AC3] [Lektor PL]/Daredevil S02E09 - Seven Minutes in Heaven [720p.NF.WEBRip.x264.AC3] [Lektor PL].mkv 13.23 GB
Daredevil - Sezon 2 [720p.NF.WEBRip.x264.AC3] [Lektor PL]/Daredevil S02E10 - The Man in The Box [720p.NF.WEBRip.x264.AC3] [Lektor PL].mkv 14.72 GB
Daredevil - Sezon 2 [720p.NF.WEBRip.x264.AC3] [Lektor PL]/Daredevil S02E11 - .380 [720p.NF.WEBRip.x264.AC3] [Lektor PL].mkv 16.15 GB
Daredevil - Sezon 2 [720p.NF.WEBRip.x264.AC3] [Lektor PL]/Daredevil S02E12 - The Dark at the End of the Tunnel [720p.NF.WEBRip.x.264.AC3] [Lektor PL].mkv 17.31 GB
Daredevil - Sezon 2 [720p.NF.WEBRip.x264.AC3] [Lektor PL]/Daredevil S02E13 - A Cold Day in Hell's Kitchen [720p.NF.WEBRip.x264.AC3] [Lektor PL].mkv 18.64 GB



  • KOMENTARZE

    Dodaj komentarz

    NOWE FILMY I SERIALE ONLINE - FILMOWAKRAINA.TVOGLĄDAJ TERAZ
    +